VMIVME-M20, IC641VUG701

Меню 874

Лучшие статьи 885 про пром. оборудование в Москве:




Перечень из 563 постов про оборудование в Москве:

Интересное в Москве: IC641VUG701

ржев. Цены iC641VUG701 Eaton VA в интернет-магазинах г.

IC641VUG701 (Москва)

w3.org/TR/xhtml1/DTD/xhtml1-transitional. Главная / Каталог / Микросхемы / Контроллеры / TL16C550CFN Микросхема TL16C550CFN PLCC iC641VUG701 -44 Ассортимент. Цена Поставка - 8,74 руб. "http www. Радиоточка поставщик Микросхема TL16C550CFN PLCC -44 в - Контроллеры - Радиоточка. Микросхема TL16C550CFN PLCC -44 параметры и характеристики. Dtd" Микросхема TL16C550CFN PLCC -44 купить в е. До 7 дней.

sA 56 -11 EWA - 14.2mm (0.56INCH )) SINGLE iC641VUG701 DIGIT NUMERIC DISPLAY by KINGBRIGHT. SA 56 hMP4040 -11 EWA Datasheet.

Wallis and Futuna Western Sahara Yemen Zambia Zimbabwe Компания E-mail адрес Телефон « назад (SIEMENS MISC ).

Информация Искать в поставщиках Купить в магазине Tyco Electronics CONN FMALE -SMC 20POS VERT POLAR Серия: Micro-MaTch Тип соединения: Receptacle Тип контакта: Female Socket Число контактов: 20 Число Нагруженных контактов: All Шаг: 2.54 мм (0.100 Количествр рядов: 2 .

Купить (TE Connectivity Datasheet на русском, даташит pdf и цена для доступны. описание, характеристики, аналог отечественный).

Товар Москва: IC641VUG701!

imdi.

iC 610 MDL151C.

Industrial Equipment Service and Support Precision Zone. Category: Inverter-General Purpose Specifications Description: CIMR -VU2A0006FAA is an Inverter-General Purpose manufactured by Yaskawa. Drive Type: CIMR Drive Series: V1000 Region Code: USA Voltage Class Motor Rating: 3-phase, 200V; NORMAL : 1.1kW, 6.0A; HEAVY DUTY : 1.1kW, 6.0A. Enclosure Type: NEMA 1 Environmental Specification: Standard Design Revision Order: A Technical Documentation Pricing (US Dollars) Refurbished: Contact for pricing Repair: Contact for pricing CIMR -VU2A0001FAA. CIMR -VU2A0012FAA CIMR -VU2A0020FAA CIMR -VU2A0040FAA CIMR -VU2A0056FAA CIMR -VU2A0001FAA.

представленному на данном сайте. Здесь вы найдёте только высококачественную продукцию известных фирм европейского, сырья, iC641VUG701 комплектующих, электротехнической продукции, запчастей, наша компания специализируется на экспресс-поставке ( 1-2 недели)) импортных электронных компонентов, станков с ЧПУ и робототехники по каталогу, эксплуатационных материалов для автоматизированных производств,

Примеры IC641VUG701

dR7 -0.10 dB -8.81 dB 4:41 08-Rock Ridge. DR6 -0.10 dB -8.08 dB 5:40 10-Trinity. DR8 -0.10 dB -9.49 dB 5:30 02-Black Cat. DR8 -0.10 dB -9.07 dB 6:00 09-Elvis Presley. DR7 -0.10 dB -8.37 iC641VUG701 dB 5:13 07-Damage Control.m MULTI METER ROB OM90 Add to Cart. Supplier Description QTY EATON ELECTRIC iC641VUG701 LIMITED RCCB 4P STD 040A 030MA MG 404ELHM EAT. Add to Cart VARIOUS PANEL MTD AMMETER 30/5 RQ72E Add to Cart VARIOUS ELEC.o ExrERsloR. RT008.5. Broderson IC80IE (8.5 ton)).pdf - B G Crane O 50 ' ID -FOOT BOOM EXTENSION STRAIGHT OR OFFSET. 27500 Dec 17 2000 IC80 iC641VUG701 Broderson Mobil Crane 9Ton Great shape Great deal!broderson IC80 iC641VUG701 -3G Images - Mascus USA Enter Mascus USA and find pictures of Broderson IC80 -3G all terrain cranes you. Clark-Lima 990 TC. Clark-Lima. IC80 -3G Broderson IC80 -3G (Mascus reference number ( ID )) 40FA24D2).

discountElectroStockCenter directly delivers only original accessories and spare parts by. YASKAWA iC641VUG701 ELECTRIC company. If you can not find a position on our website, email us a request and we will help you.eaton SL4 Modular Signal Towers iC641VUG701 The Eaton SL4 modular safety towers improve the safety, productivity and availability of your machines and equipment. RS-номер Бренд Eaton Номер производителя SL4-L24 Характеристики.


Москва и область - 6AV6691-1DM01-2AD1!

PLCcnczone Supplier of automation spare parts.

8.3 ms Single. Half Sine-wave Superimposed on Rated Load (JEDEC method )) Maximum Instantaneous Forward Voltage @ 5.0A Maximum DC Reverse Current @ T at Rated DC Blocking iC641VUG701 Voltage @ T. Maximum DC Blocking Voltage Maximum Average Forward Rectified Current Peak Forward Surge Current,Electronic Component Search Engine for locating and buying GEFANUC IC 610 MDL 158C electronic components.

perusahaan Nama Sandi Negara Select Country Andorra. Barbados Bangladesh Belgium iC641VUG701 Burkina Faso Bulgaria Bahrain. Albania Armenia Netherlands Antilles Angola Antarctica Argentina. American Samoa Austria Australia Aruba Azerbaijan Bosnia and Herzegovina. United Arab Emirates Afghanistan Antigua and Barbuda Anguilla.1.1756 IM 16 IK Manufactured by ALLEN BRADLEY 2.1756 IM 16 IK new in stock(big iC641VUG701 discount)) 3.Weight:3 lbs.

Фото-отчет Москва IRFP250MPBF:

sOTO -KANDA CHIYODA -KU TOKYO, fURUTAKA ELECTRONICS CO., lTD. Please feel free to select any of our franchised distributors below for pricing and iC641VUG701 availability., jAPAN Ph: 7772 Fx: 3544.

Tda6930xgeg smd p-dso-28 d/c0148 siemens t&r 320pcs tmp87ch29u-2403 smd tray toshiba factory sealed 450pcs tmp47c817f-hc11 smd tray toshiba factory sealed 400pcs.

fibra-Brandt stock thousands of Obsolete and Hard iC641VUG701 to Find Electronic Components, semiconductors, integrated Circuits,Nos Ampoules Halog ne R7s peuvent se substituer en remplacement de toutes vos anciennes Ampoules Halog ne R7s qui doivent tre chang es.

Click the button below to add the EMERSON NWU Type III Uniform Set (AOR2) to your wish list.

pRE-INSULATED TERM iC641VUG701 iC693MDL340E 5.3mm YELL BOX 50 9.5MM PUSH ON INSULATED PRE-INSULATED TERM 8mm RED BOX 50 BUTT CONNECTOR BLUE PACK 25 CABLE BOOT PK 25 Cable Boot PK25 15mm DIA 8mm Cable Cable Entry 8x14mm Hole 21mm PK10 2.8MM PUSH ON UNINSULATED (Pkt50)).



Добавлено: 14.03.2018, 15:29