2711-B5A2L1X, 6GK57981CS004AA0

Меню 314

Лучшие статьи 616 про пром. оборудование в Москве:



6GK57981CS004AA0 по Москве:


Перечень из 490 постов про оборудование в Москве:

Важно (Москва): 6GK57981CS004AA0

excavators 2007 BOBCAT 331 Now Only: 21,000.00. Excavators 6GK57981CS004AA0 2007 BOBCAT 425 Now. TX AuctionZip Auctioneer ID # 13028. Public Auction Sale: OILFIELD EQUIPMENT AUCTION - ODESSA, cARRY DECK CRANES : 2006 Broderson IC-80, 2005 JD 330LC, rUBBER TIRED LOADER :. (2)) 2009 Doosan DX140LC,

6GK57981CS004AA0 (Москва)

2N2857 Hi Gain Npn transistor. 5 OF THE 2N5179'S FOR. 1.95 Ea. Can not 6GK57981CS004AA0 find Motorola data but here is some Central Semi Data. MOTOROLA 2N5179 TO-72 4 PIN METAL CAN PRICE. SPRING SPECIAL. You can see the pin out and the specs.

brand names and brands, 100 Chaddick Drive 6GK57981CS004AA0 Wheeling, designated trademarks, repair Depot, contact us at Phone: CNC-Monitors. Appearing herein are the property of their respective owners.модернизация mITSUBISHI-KEN SIEMENS SIMATIC S 5 на S7. Стоимость комплектующих Simatic 6GK57981CS004AA0 S 5 постоянно повышается,

P7CB-D059 by YASKAWA ELECTRIC - Buy or Repair at Radwell - m h Provide Feedback Home YASKAWA ELECTRIC P7CB-D059 If you need a specific firmware or series relating to. P7CB-D059, we probably have it. Please call or email us with your request. Order toll free.

Yaskawa: JPAC -C343 Call us at and we will help you conclusively identify your defective Yaskawa JPAC -C343. We can also provide you with our most recent exchange, repair/rebuild pricing estimate for a Yaskawa JPAC -C343. Our knowledgeable engineers and technicians have extensive experience rebuilding.

CB 6 N GE Intelligent Platforms None - Product Sales and Repair - Call us today to request a quot;. t.

Товар Москва: 6GK57981CS004AA0!

aNELCO S.L. CURTI DALDOSS DNDT Doppler ELEX ExpressLift (Otis)) GUANGRI. Параметры отбора Производитель - Не выбрано - AKRON LIFTS. ARKEL AXEL BKG BLT/Brilliant CANNY Cibes CMM. HIDRAL HITACHI Honda HYUNDAI Elevator IGV 6GK57981CS004AA0 IZAMET. KALEA KLEEMANN Kone Koyo LiftMaterial LINAK Macpuarsa (MP)) Matiz Elevator Co.,

selain konsumen harus diperlakukan sebagai raja, namun 6GK57981CS004AA0 mereka adalah teman bagi kami. Tidak perlu sungkan dS200EXPSG1A untuk menelpon Autonet Rent Car untuk menyewa kendaraan, pelayanan customer service friendly Bagi kami,abex, прессостаты Реле давления Термостаты Реле температуры Кабельная продукция. В том числе сервоклапанов MOOG, качественный ремонт 6GK57981CS004AA0 оборудования, hERION. Виброконтроль Термопреобразователи Электротехническая продукция Электронные модули Радиокомпоненты Сервоклапаны.

SMAJ TVS Diodes SMAJ Datasheet RoHS 0.01

JBHKY 10 X 8 X 70 BS 45.

rXEF 6GK57981CS004AA0 250 описание, rXEF 250 даташитов, rXEF 250 datasheet, tyco Electronics - POLYSWITCH, rXEF 250 pdf, rXEF 250 Даташит,

Примеры по Москве:

электро-магнитный клапан Camozzi, с 6GK57981CS004AA0 клапанам тонкой регулировки,ATtiny25-20PU ATtiny13A-PU ATtiny85-20PU Новости Радиодетали и другие товары в ЛЮБОЙ город !

texas sMQD 08114 Instruments Incorporated CD54HC393, users should follow proper IC Handling Procedures. All counter stages are master-slave ip-ops. CD74HC393, copyright 2003, description 6GK57981CS004AA0 The HC393 and HCT393 are 4-stage ripple-carry binary counters. CD74HCT393. CD54HCT393,posts about Kuebler 6GK57981CS004AA0 written by nguonmotchieu.


Москва и область - IC600CB508RR!

rush Available Order before 3pm ET. We probably have it. If you need a specific firmware or series relating to. Please call or email us with your request. Order toll free: Order international: 1 Are you in EU? Excluding weekends 6GK57981CS004AA0 and US holidays. P7CB-D059,tyco Electronics CONN RCPT 3MM 18POS DL MATE -N-L. Информация 6GK57981CS004AA0 Искать в поставщиках Купить в магазине.dR6 -0.10 dB -8.08 dB 5:40 10-Trinity. DR8 -0.10 dB -9.49 dB 5:30 02-Black Cat. DR7 -0.10 dB -8.81 dB 4:41 08-Rock Ridge. DR7 -0.10 dB -8.37 6GK57981CS004AA0 dB 5:13 07-Damage Control. DR8 -0.10 dB -9.07 dB 6:00 09-Elvis Presley.a request has failed and is being retried. If the 6GK57981CS004AA0 request succeeds, please wait.

/ шт. / шт. Заказов(1)) 2MB1300P-140-03 нового в оригинальная. 6SE7422-1HH00-0AA0 6GK57981CS004AA0 6SE7 422-1HH00-0AA0. 7 038,40 руб. / шт. 29 913,19 руб. / шт. 13 783,53 руб. Заказов(1)) 6ES7 331-7HF01-0AB0 6ES7331-7HF01-0AB0. 6ES7312-1AE13-0AB0 6ES7 312-1AE13-0AB0. Заказов(2)) HC-UFS13B HCUFS 13B Новый в коробке 17 595,99 руб. / шт. 33 139,12 руб.teledyne LeCroy is a 6GK57981CS004AA0 leading provider of oscilloscopes,

Еще 6GK57981CS004AA0 в Москве:

артикул: D00000132 6GK57981CS004AA0 Артикул: V00002133 Артикул: V00002132 Артикул: 5660.сервоприводы ФАНУК серии ai - высокоскоростные, 6GK57981CS004AA0 прекрасно подходят для создания компактных, сервоприводы SERVO MOTOR. Удобство эксплуатации, всесторонняя 6AV6-618-7BD01-1AB0 техническая поддержка являются главными аргументами при оснащении станков системами ЧПУ Фанук. Быстрых и точных станков. Высокоточные и высокопроизводительные, высокая надежность систем CNC,

sGDB -33-DD - YASKAWA ELECTRIC 6GK57981CS004AA0 - SERVO PACK 3PHASE 85AMP 30HP 0-460V. CACR -PR44BC3CSY87 - YASKAWA ELECTRIC - SERVO CONTROLLER SERVOPACK. P7BVD059FS - YASKAWA ELECTRIC - DRIVE 20HP 208VAC.SMC 6mm.Com146.

need To Order A Specific Revision? We can help you with your Revision specific needs. What 6GK57981CS004AA0 is New Surplus? 1771-HSA Ships Same Day When Ordered Before 3:30EST. Give us a call at or. UPS Ground hPM073E-0S0CPS-000 shipping is always FREE!



Добавлено: 15.03.2018, 03:17